<?xml version="1.0" standalone="no"?> <!DOCTYPE svg PUBLIC "-//W3C//DTD SVG 1.0//EN" "http://www.w3.org/TR/2001/REC-SVG-20010904/DTD/svg10.dtd" > <svg xmlns="http://www.w3.org/2000/svg" width="100%" height="100%">
<defs >
<font id="MathJax_Typewriter-Regular" horiz-adv-x="479" ><font-face
    font-family="MathJax_Typewriter"
    units-per-em="1000"
    panose-1="0 0 0 0 0 0 0 0 0 0"
    ascent="963"
    descent="-429"
    alphabetic="0" />
<missing-glyph horiz-adv-x="250" d="M50 0V533H200V0H50ZM100 50H150V483H100V50Z" />
<glyph unicode=" " glyph-name="space" horiz-adv-x="250" />
<glyph unicode="!" glyph-name="exclam" horiz-adv-x="525" d="M206 565Q206 590 222 606T265 622Q287 621 303 606T319 565T314 392L308 216Q299 194 273 194Q271 194 268 194T262 194Q247 194 241 195T228 200T217 216L211 392Q206 539 206 565ZM206 56Q206
83 223 99T265 115Q288 113 304 99T320 58Q320 33 303 17T262 0Q237 0 222 17T206 56Z" />
<glyph unicode="&quot;" glyph-name="quotedbl" horiz-adv-x="525" d="M122 575Q122 593 137 608T173 623Q196 623 210 608T225 575Q225 562 218 464Q212 373 211 361T201 341Q193 333 173 333Q154 333 146 341Q138 348 137 360T129 464Q122 561 122 575ZM299
575Q299 593 314 608T350 623Q373 623 387 608T402 575Q402 562 395 464Q389 373 388 361T378 341Q370 333 350 333Q331 333 323 341Q315 348 314 360T306 464Q299 561 299 575Z" />
<glyph unicode="#" glyph-name="numbersign" horiz-adv-x="525" d="M36 414Q36 450 86 450Q91 450 99 450T112 449H159Q163 480 167 517Q168 524 170 545T174 573T180 591T191 607T210 611Q223 611 232 604T243 588L245 580Q245 565 238 511T230 451Q230 449 282
449H333Q337 480 341 517Q342 524 343 537T345 556T348 573T352 589T359 600T370 608T384 611Q395 611 406 602T419 580Q419 565 412 511T404 451Q404 449 431 449Q433 449 436 449T442 449Q459 449 469 446T485 429Q489 421 489 414Q489 392 463 380L428 379H394V376Q393
373 385 305T376 235Q376 233 419 233H463L468 230Q472 227 473 227T477 223T482 218T486 213T488 206T489 198Q489 162 436 162Q430 162 422 162T412 163H366V161Q364 159 357 92Q356 85 355 73T353 54T350 37T346 22T339 11T328 3T314 0Q303 0 292 9T279 31Q279
37 287 96T295 162Q295 163 244 163H192V161Q190 159 183 92Q182 85 181 73T179 54T176 37T172 22T165 11T154 3T140 0Q129 0 118 9T105 31Q105 37 113 96T121 162Q121 163 93 163Q91 163 88 163T82 163Q65 163 55 166T39 183Q36 189 36 198Q36 210 40 215T61 233H131V236Q132
239 140 307T149 377Q149 379 105 379L61 380Q36 392 36 414ZM323 377Q323 379 272 379H220V376Q219 373 211 305T202 235Q202 233 253 233H305V236Q306 239 314 307T323 377Z" />
<glyph unicode="$" glyph-name="dollar" horiz-adv-x="525" d="M58 449Q58 516 108 560T224 614V643Q224 645 224 648T224 654Q224 666 226 673T237 687T264 694Q289 693 294 683T300 642V615H303Q355 607 390 587T440 540T460 493T466 453Q466 425 451 411T415
397Q409 397 404 398Q386 400 374 414T362 448Q362 464 376 485Q369 498 362 506T346 520T332 528T315 533T300 538V445L301 353L311 350Q382 334 424 284T466 174Q466 115 425 65T303 -2L300 -3V-30Q300 -64 291 -74Q283 -82 262 -82Q261 -82 259 -82T255 -82Q234
-82 225 -60L224 -32V-4L213 -2Q152 6 106 51T59 170Q59 172 59 175T59 180Q59 190 61 196T74 213Q89 227 110 227T146 213T162 174Q162 156 147 137Q153 123 161 112T176 95T191 85T205 79T216 76T224 74V283L213 285Q147 298 103 343T58 449ZM137 452Q137 425
158 404T198 376T223 369Q224 369 224 453T223 537Q198 532 168 509T137 452ZM301 75Q307 75 325 83T365 116T387 171Q387 238 300 267V171Q300 75 301 75Z" />
<glyph unicode="%" glyph-name="percent" horiz-adv-x="525" d="M35 560Q35 607 54 645T110 693Q111 693 116 693T125 694Q165 692 187 651T210 560Q210 506 186 467T123 428Q84 428 60 466T35 560ZM139 560Q139 574 136 587T130 608T124 615Q122 617 120 614Q106
595 106 561Q106 516 121 506Q123 504 125 507Q139 526 139 560ZM123 -83Q107 -83 98 -73T88 -48Q88 -43 89 -41Q90 -37 229 316T370 675Q381 694 400 694Q416 694 426 684T436 659Q436 654 435 652Q434 647 295 294T153 -65Q144 -83 123 -83ZM314 50Q314 104 338
143T400 183Q439 183 464 144T489 50T465 -43T402 -82Q358 -82 336 -41T314 50ZM417 50Q417 71 413 85T405 102L401 106Q386 95 386 50Q386 29 390 15T398 -2L402 -6Q417 5 417 50Z" />
<glyph unicode="&amp;" glyph-name="ampersand" horiz-adv-x="525" d="M96 462Q96 546 132 584T211 622Q255 622 284 583T314 474Q314 395 224 305L208 288Q213 275 226 251L265 185L269 179Q273 184 299 246L332 333L342 363Q342 364 341 365Q334 365 334 393Q334
406 334 410T340 420T356 431H412Q417 431 426 431T440 431Q467 431 478 424T490 393Q490 369 479 362T448 355Q446 355 444 355T441 355H415L399 312Q349 176 322 127L315 115L323 106Q360 65 393 65Q405 65 410 80T416 109Q416 140 452 140Q487 140 487 105Q487
64 462 27T391 -11L286 41L273 53L262 42Q212 -11 151 -11Q97 -11 63 33T28 143Q28 161 30 176T38 205T47 227T60 247T72 261T84 274T94 283L122 311L119 323Q96 392 96 462ZM243 474Q243 533 218 545L215 546Q212 546 210 546Q182 546 169 501Q167 492 167 466Q167
419 179 368L188 377Q234 425 242 461Q243 465 243 474ZM217 129Q185 174 154 235Q121 214 115 176Q113 168 113 143Q113 83 139 67Q141 66 152 66Q191 66 228 112L217 129Z" />
<glyph unicode="&apos;" glyph-name="quotesingle" horiz-adv-x="525" d="M205 554Q205 577 221 594T263 611Q302 611 325 577T349 490Q349 409 298 347Q285 330 258 309T214 287Q203 289 189 302T175 327Q175 341 185 349T213 369T245 402Q269 437 273 483V497Q264
496 263 496Q240 496 223 513T205 554Z" />
<glyph unicode="(" glyph-name="parenleft" horiz-adv-x="525" d="M437 -53Q437 -82 399 -82Q398 -82 397 -82T394 -82Q377 -82 342 -55Q259 7 213 102T166 306Q166 412 211 507T342 667Q377 694 393 694Q394 694 396 694T399 694Q437 694 437 665Q437 654 426
643T397 620T356 584T311 525Q301 511 290 488T264 412T250 306Q250 191 300 105T422 -27Q437 -37 437 -53Z" />
<glyph unicode=")" glyph-name="parenright" horiz-adv-x="525" d="M87 664Q87 694 126 694Q138 694 147 690T183 667Q266 605 312 510T358 306Q358 193 307 93T161 -70Q142 -82 126 -82Q105 -82 96 -73T87 -53Q87 -47 88 -44Q92 -36 116 -19T173 34T230 119Q273
206 273 306Q273 408 231 494T109 635Q87 649 87 664Z" />
<glyph unicode="*" glyph-name="asterisk" horiz-adv-x="525" d="M222 487Q224 501 235 510T262 520Q279 520 289 510T302 487Q302 458 301 429Q301 421 301 413T301 398T300 386T300 377V374Q300 373 301 373Q304 373 353 403T416 434Q432 434 444 423T456 393Q456
389 456 386T454 379T451 373T448 368T442 363T436 358T427 353T417 348T405 342T391 334Q345 309 339 305L388 279Q400 273 412 266T432 255T441 250Q456 238 456 218Q456 200 445 189T417 177Q403 177 354 207T301 238Q300 238 300 237V234Q300 231 300 226T300
214T301 199T301 182Q302 153 302 124Q300 109 289 100T262 90T235 100T222 124Q222 153 223 182Q223 190 223 198T223 213T224 225T224 234V237Q224 238 223 238Q220 238 171 208T108 177Q92 177 80 188T68 218Q68 237 79 246T134 277Q180 303 185 306L136 332Q124
338 112 345T92 356T83 361Q68 373 68 393Q68 411 79 422T107 434Q121 434 170 404T223 373Q224 373 224 374V377Q224 380 224 385T224 397T223 412T223 429Q222 458 222 487Z" />
<glyph unicode="+" glyph-name="plus" horiz-adv-x="525" d="M147 271Q138 271 122 271T98 270Q67 270 53 277T38 306T52 335T98 342Q105 342 121 342T147 341H227V423L228 505Q241 531 262 531Q268 531 273 530T282 525T287 519T293 511L297 505V341H377Q389
341 406 341T430 341Q456 341 466 338T483 321Q487 313 487 306Q487 295 480 286T463 273Q457 271 377 271H297V107Q281 81 262 81Q250 81 242 87T230 100L228 107L227 189V271H147Z" />
<glyph unicode="," glyph-name="comma" horiz-adv-x="525" d="M193 37T193 70T213 121T260 140Q302 140 327 108T353 36Q353 -7 336 -43T294 -98T249 -128T215 -139Q204 -139 189 -125Q177 -111 174 -101Q172 -84 183 -77T217 -61T253 -33Q261 -24 272 1L265 0Q234
0 214 18Z" />
<glyph unicode="-" glyph-name="hyphen" horiz-adv-x="525" d="M57 306Q57 333 86 341H438Q468 332 468 306T438 271H86Q57 280 57 306Z" />
<glyph unicode="." glyph-name="period" horiz-adv-x="525" d="M193 70Q193 105 214 122T258 140Q291 140 311 120T332 70Q332 44 314 23T262 1Q234 1 214 18T193 70Z" />
<glyph unicode="/" glyph-name="slash" horiz-adv-x="525" d="M94 -83Q78 -83 68 -73T58 -48Q58 -44 60 -36Q62 -31 227 314T399 673Q410 694 431 694Q445 694 455 684T466 659Q466 656 464 648Q463 643 298 298T125 -62Q114 -83 94 -83Z" />
<glyph unicode="0" glyph-name="zero" horiz-adv-x="525" d="M42 305Q42 450 111 535T257 621Q335 621 390 562Q482 468 482 306Q482 174 418 82T262 -10T106 82T42 305ZM257 545Q209 545 168 481T126 320Q126 220 162 147Q204 65 262 65Q318 65 358 139T398 320V328Q395
411 364 470T284 543Q270 545 257 545Z" />
<glyph unicode="1" glyph-name="one" horiz-adv-x="525" d="M99 461Q99 470 99 474T104 487T120 498T151 502Q213 517 251 596Q264 622 283 622Q308 622 319 597V76H373Q378 76 387 76T401 76Q427 76 438 69T450 38Q450 11 428 1H127Q104 10 104 38Q104 62 115
69T153 76Q157 76 166 76T181 76H235V269Q235 461 234 461Q184 426 137 424H133Q124 424 119 425T109 431T99 447V461Z" />
<glyph unicode="2" glyph-name="two" horiz-adv-x="525" d="M52 462Q52 528 110 575T247 622H250Q343 622 407 565T472 421Q472 371 446 324T390 248T308 178Q307 177 275 151T214 101L185 77Q185 76 286 76H388V87Q388 105 397 114T430 123T463 114Q470 107 471
100T472 61Q472 57 472 51T472 42Q472 24 468 16T450 1H75Q53 10 53 32Q53 33 53 35T53 38Q53 40 53 43T53 48Q53 57 62 66T118 115Q149 140 169 157L289 256Q388 345 388 419Q388 473 346 509T231 545Q231 545 229 545T224 545Q175 545 146 499L144 494Q155 476
155 459Q154 459 155 455T154 444T148 430T136 417T114 408Q109 407 104 407Q80 407 66 422T52 462Z" />
<glyph unicode="3" glyph-name="three" horiz-adv-x="525" d="M260 546Q233 546 211 541T180 531T171 524L174 514Q177 505 177 497Q177 476 162 461T125 446Q106 446 90 459T73 504Q76 540 98 565T150 601T203 616T239 621Q241 622 265 622Q322 620 362 602T420
558T444 513T451 478Q451 386 369 329L375 326Q381 323 386 320T401 311T419 298T436 283T452 263T466 240T475 212T479 180Q479 99 416 44T259 -11T105 28T44 130Q44 154 59 168T95 183Q117 183 132 169T148 131Q148 119 139 101Q175 65 260 65Q316 65 355 97T395
179Q395 211 375 240Q336 292 253 292Q248 292 242 292T234 292Q231 292 225 292T215 292Q194 292 185 299T175 330Q175 350 184 359Q192 368 238 370T309 384Q336 398 351 423T367 474Q367 496 350 513Q321 546 260 546Z" />
<glyph unicode="4" glyph-name="four" horiz-adv-x="525" d="M235 1Q213 10 213 32Q213 33 213 35T213 38T213 42T213 46Q213 65 230 73Q236 76 274 76H314V168H183L52 169Q37 175 33 182T29 205Q29 207 29 211T29 218L30 244Q53 283 155 443T264 613Q272 620
277 621T298 623Q300 623 308 623T323 623H363Q378 616 385 601V244H429Q433 244 440 244T450 244Q474 244 484 237T495 206Q495 179 477 171Q471 168 429 168H385V76H425Q428 76 433 76T442 76Q466 76 476 69T487 38Q487 10 465 1H235ZM314 244V554L117 245L215
244H314Z" />
<glyph unicode="5" glyph-name="five" horiz-adv-x="525" d="M387 189Q387 244 354 278T273 313Q230 313 205 301T163 271T138 249H120Q102 249 97 251Q90 256 88 257T84 265T81 281T80 311Q80 320 80 359T81 430Q81 587 82 591Q88 605 103 610H108Q112 610 120
610T138 610T163 610T192 611T225 611T260 611H415Q416 610 421 607T428 602T432 596T436 587T437 573Q437 567 437 562T434 554T431 548T427 543T423 540T418 538L415 536L289 535H164V363L170 366Q175 368 184 372T207 380T238 386T276 389Q357 389 414 331T472
187Q472 116 412 53T245 -10Q218 -10 209 -9Q126 5 89 48T52 137Q52 164 68 177T104 191Q130 191 143 175T156 141Q156 132 154 125T149 113T146 107Q146 104 155 95T188 76T245 65Q298 65 342 98T387 189Z" />
<glyph unicode="6" glyph-name="six" horiz-adv-x="525" d="M45 301Q45 444 129 533T319 622Q388 622 421 589T454 510Q454 491 442 475T402 458Q373 458 362 475T350 510Q350 520 353 527T357 536Q357 538 351 540Q338 546 318 546Q258 546 205 497T133 357V353L144
361Q210 402 285 402Q362 402 414 350Q479 285 479 193Q479 111 418 50T263 -11Q234 -11 207 -3T149 26T97 81T60 171T45 301ZM319 326T269 326T179 298T136 223Q136 202 143 174T176 112T237 68Q246 66 265 66Q319 66 360 107Q395 146 395 197Q395 250 356 289Q319
326 269 326Z" />
<glyph unicode="7" glyph-name="seven" horiz-adv-x="525" d="M204 -10Q162 -10 162 40Q162 146 198 261T310 477Q311 478 321 491T342 517T358 535H128V524Q128 506 119 497Q111 489 86 489Q85 489 82 489T78 489Q55 489 46 508Q44 513 44 557Q44 561 44 569T44
580Q44 606 52 616T88 627Q89 627 90 627T93 627Q115 627 125 611H458Q474 598 477 593T480 573Q480 559 478 553T469 543T446 521T408 477Q252 290 246 49Q246 43 246 37T246 27T245 22Q243 11 233 1T204 -10Z" />
<glyph unicode="8" glyph-name="eight" horiz-adv-x="525" d="M58 460Q58 523 117 572T254 621Q290 621 298 620Q376 607 421 560T466 460Q466 441 460 424T443 393T421 370T397 352T374 340T357 332L350 330L356 328Q363 325 371 321T392 310T415 295T439 274T459
249T473 217T479 179Q479 102 418 46T262 -10T106 46T45 179Q45 202 52 222T70 257T96 284T123 305T148 318T167 327T174 330Q174 331 171 332T160 336T145 343Q104 362 81 393T58 460ZM382 458Q382 491 349 518T263 546Q215 546 179 521T142 458Q142 421 178 395T262
368Q315 368 348 396T382 458ZM396 178Q396 223 358 257T263 292Q206 292 167 258T128 178Q128 137 163 102T262 66Q324 66 360 101T396 178Z" />
<glyph unicode="9" glyph-name="nine" horiz-adv-x="525" d="M392 259Q333 210 236 210H233Q163 210 109 262Q46 325 46 411T99 550Q164 622 264 622Q293 622 319 615T376 587T428 532T464 440T479 304Q479 167 400 78T217 -11Q140 -11 105 22T70 101Q70 124 84
138T122 153Q150 153 162 137T174 101Q174 91 168 76Q179 65 216 65Q267 65 300 93Q322 109 339 130T366 173T380 210T388 242T392 259ZM388 389Q388 438 357 492T268 546T185 520Q129 479 129 415Q129 384 138 363Q145 349 156 334T195 302T255 285Q305 285 345
313T388 389Z" />
<glyph unicode=":" glyph-name="colon" horiz-adv-x="525" d="M193 361Q193 396 214 413T258 431Q291 431 311 411T332 361Q332 335 314 314T262 292Q234 292 214 309T193 361ZM193 70Q193 105 214 122T258 140Q291 140 311 120T332 70Q332 44 314 23T262 1Q234
1 214 18T193 70Z" />
<glyph unicode=";" glyph-name="semicolon" horiz-adv-x="525" d="M193 361Q193 396 214 413T258 431Q291 431 311 411T332 361Q332 335 314 314T262 292Q234 292 214 309T193 361ZM193 70Q193 105 214 122T259 140Q301 140 319 108T337 33Q337 -38 291 -88T214
-139Q203 -139 189 -126T175 -97Q175 -85 182 -78T200 -66T225 -50T249 -17Q256 -3 256 0Q252 1 248 1Q242 2 235 5T218 15T200 36T193 70Z" />
<glyph unicode="&lt;" glyph-name="less" horiz-adv-x="525" d="M468 90Q468 76 458 66T433 55Q426 55 419 58Q413 61 243 168T68 280Q57 291 57 306T68 332Q72 335 241 442T416 553Q424 557 432 557Q447 557 457 547T468 522T456 496Q454 494 305 399L158 306L305
213Q341 190 390 159Q443 125 452 119T464 106V105Q468 97 468 90Z" />
<glyph unicode="=" glyph-name="equal" horiz-adv-x="525" d="M38 382Q38 409 67 417H457Q487 408 487 382Q487 358 461 348H64Q51 352 45 360T38 376V382ZM67 195Q38 204 38 230Q38 255 62 264Q66 265 264 265H461L464 264Q467 262 469 261T475 256T481 249T485
240T487 230Q487 204 457 195H67Z" />
<glyph unicode="&gt;" glyph-name="greater" horiz-adv-x="525" d="M57 522Q57 539 67 548T90 557Q98 557 105 554Q111 551 281 444T456 332Q468 320 468 306T456 280Q452 276 282 169T105 58Q98 55 91 55Q79 55 68 63T57 90Q57 105 68 116Q70 118 219 213L366
306L219 399Q75 491 71 494Q57 507 57 522Z" />
<glyph unicode="?" glyph-name="question" horiz-adv-x="525" d="M62 493Q62 540 107 578T253 617Q366 617 414 578T462 490Q462 459 445 434T411 400L394 390Q315 347 296 287Q294 278 293 247V217Q285 201 278 198T246 194T216 197T201 215V245Q201 246 201
248T201 253Q201 379 351 456Q366 464 375 477Q377 482 377 490Q377 517 339 528T251 540Q182 540 159 517Q166 503 166 490Q166 468 151 453T114 438Q96 438 79 451T62 493ZM190 58Q190 85 208 100T249 115Q272 113 288 99T304 58Q304 33 287 17T246 0T206 16T190
58Z" />
<glyph unicode="@" glyph-name="at" horiz-adv-x="525" d="M44 306Q44 445 125 531T302 617Q332 617 358 607T411 574T456 502T479 387Q481 361 481 321Q481 203 421 143Q381 103 332 103Q266 103 225 165T183 307Q183 390 227 449T332 508Q358 508 378 498Q350
541 304 541Q229 541 172 473T115 305Q115 208 171 140T306 71Q306 71 307 71T310 71Q358 71 397 105Q409 115 436 115Q458 115 462 113Q481 106 481 86Q481 73 468 61Q401 -6 305 -6Q262 -6 217 14T133 71T69 170T44 306ZM410 306Q410 361 386 396T333 431Q300
431 277 394T254 305Q254 256 276 218T332 180Q364 180 387 217T410 306Z" />
<glyph unicode="A" glyph-name="A" horiz-adv-x="525" d="M229 38Q229 10 208 1H129Q118 1 102 1T80 1Q48 1 38 7T28 38Q28 51 29 57T40 69T70 76Q89 76 89 78Q90 79 117 205T173 461T205 599Q212 623 250 623Q253 623 257 623T262 623Q262 623 263 623T267 623T273
623Q312 623 319 599Q322 591 350 461T406 205T435 78Q435 76 454 76Q455 76 456 76T458 76Q484 76 493 59Q496 53 496 38Q496 11 478 3Q474 1 395 1H317Q295 8 295 38Q295 65 311 73Q316 75 333 76L348 77V78Q348 80 341 112L334 143H190L183 112Q176 80 176 78Q175
76 178 76Q180 76 191 76Q204 75 208 75T217 70T227 57Q229 53 229 38ZM318 221Q313 238 288 366T263 519Q263 526 262 527Q261 527 261 520Q261 493 236 365T206 221Q206 219 262 219T318 221Z" />
<glyph unicode="B" glyph-name="B" horiz-adv-x="525" d="M39 1Q17 10 17 32Q17 33 17 35T17 38T17 42T17 46Q17 65 34 73Q40 76 61 76H84V535H61Q60 535 58 535T54 535Q28 535 19 553Q17 557 17 573Q17 583 17 587T23 599T39 610Q40 611 179 611Q320 610 332
607Q332 607 339 605Q394 591 427 547T461 454Q461 413 436 378T369 325L358 320Q405 311 443 270T482 169Q482 112 445 64T345 3L334 1H39ZM309 533Q302 535 234 535H168V356H230Q284 357 296 358T323 368Q346 380 361 402T377 452Q377 482 358 505T309 533ZM398
176Q396 218 371 246T315 279Q310 280 237 280H168V76H239Q316 77 327 81Q329 82 334 84Q398 107 398 176Z" />
<glyph unicode="C" glyph-name="C" horiz-adv-x="525" d="M40 305Q40 437 110 529T281 622Q315 622 343 611T387 589T404 578Q409 585 415 596T425 611T435 618T452 622Q472 622 478 609T485 566Q485 559 485 540T484 508Q484 498 484 482T484 460Q484 413 478
403T442 393Q417 393 409 402Q400 409 400 420Q400 428 395 445T380 487T347 528T295 546Q235 546 180 483T124 306Q124 245 141 197T186 121T241 80T296 66Q346 66 373 103T400 178Q400 209 435 209Q437 209 439 209T442 209Q443 209 445 209T450 209Q484 209
484 172Q480 96 421 43T281 -11Q177 -11 109 84T40 305Z" />
<glyph unicode="D" glyph-name="D" horiz-adv-x="525" d="M38 1Q16 8 16 38Q16 62 32 73Q39 76 58 76H78V535H58Q40 535 32 538Q16 548 16 573Q16 587 17 591Q23 604 34 607T83 611Q91 611 118 611T166 611Q171 611 176 611Q188 611 209 611T239 612Q299 612 337
597T415 530Q485 438 485 300Q485 180 431 100T301 3L291 1H38ZM400 301Q400 363 385 410T346 482T303 519T267 534Q261 535 210 535H162V76H214L267 77Q323 89 361 148T400 301Z" />
<glyph unicode="E" glyph-name="E" horiz-adv-x="525" d="M19 573Q19 602 41 610H47Q53 610 63 610T88 610T121 610T160 611T204 611T251 611H458Q460 609 464 606T470 602T473 599T476 595T478 591T480 584T480 575T480 562Q480 558 480 546T480 526T480 505T480
488Q480 468 477 459T462 444Q458 442 438 442Q413 442 405 450Q398 457 397 463T396 501V535H173V355H290V371Q290 394 299 403T332 412Q363 412 372 392Q374 387 374 317Q374 307 374 292T374 271Q374 249 371 240T356 225Q352 223 332 223Q307 223 299 231Q290
240 290 263V279H173V76H418V118Q418 123 418 131T418 144Q418 166 426 176T460 186Q491 186 500 166Q502 161 502 93Q502 84 502 71T502 52Q502 26 499 17T480 1H41Q19 9 19 32Q19 33 19 35T19 38Q19 63 36 73Q42 76 65 76H89V535H65Q64 535 61 535T55 535Q45
535 38 537T25 548T19 573Z" />
<glyph unicode="F" glyph-name="F" horiz-adv-x="525" d="M22 573Q22 602 44 610H50Q56 610 66 610T91 610T125 610T164 611T208 611T257 611H468Q470 609 474 606T480 602T483 599T486 595T488 591T490 584T490 575T490 562Q490 558 490 546T490 526T490 505T490
488Q490 468 487 459T472 444Q468 442 448 442Q423 442 415 450Q408 457 407 463T406 501V535H179V344H300V360Q300 383 309 392T342 401Q373 401 382 381Q384 376 384 306Q384 296 384 281T384 260Q384 238 381 229T366 214Q362 212 342 212Q317 212 309 220Q300
229 300 252V268H179V76H249Q264 67 267 61T271 38Q271 10 249 1H44Q22 9 22 32Q22 33 22 35T22 38Q22 63 39 73Q45 76 69 76H95V535H69Q67 535 64 535T59 535Q48 535 41 537T28 548T22 573Z" />
<glyph unicode="G" glyph-name="G" horiz-adv-x="525" d="M38 306Q38 447 105 534T261 622Q280 622 298 618T329 608T350 596T366 585L371 581Q373 581 377 591T390 612T417 622Q437 622 443 609T450 566Q450 559 450 540T449 508Q449 498 449 482T449 460Q449
413 443 403T407 393Q392 393 386 394T373 402T364 426Q360 472 335 509T271 546Q214 546 168 477T121 308Q121 210 164 138T271 65Q293 65 310 78T337 109T352 147T360 180T362 195Q362 196 333 196L304 197Q290 202 286 209T282 227Q282 228 282 230T282 234Q282
247 282 251T288 261T304 272H474Q488 263 492 256T496 234Q496 211 479 199Q475 197 461 196H449V21Q441 6 434 3T412 -1Q411 -1 410 -1T407 -1T405 -1T402 -1Q385 -1 379 3T364 28Q350 14 322 2T260 -11Q173 -11 106 76T38 306Z" />
<glyph unicode="H" glyph-name="H" horiz-adv-x="525" d="M16 571Q16 597 27 604T74 611Q80 611 97 611T125 611H208Q223 602 226 596T230 573Q230 559 227 551T217 540T204 536T186 535H165V356H359V535H338Q337 535 336 535T333 535Q306 535 297 552Q295 556
295 573Q295 586 295 590T301 600T317 611H486Q501 602 504 596T508 573Q508 559 505 551T495 540T482 536T464 535H443V76H464Q465 76 467 76T470 76Q482 76 489 75T502 64T508 38Q508 10 486 1H317Q306 5 301 11T296 21T295 38Q295 39 295 41T295 44Q295 65 311
73Q318 76 338 76H359V280H165V76H186Q187 76 189 76T192 76Q204 76 211 75T224 64T230 38Q230 10 208 1H39Q28 5 23 11T18 21T17 38Q17 39 17 41T17 44Q17 65 33 73Q40 76 60 76H81V535H60Q45 535 38 536T24 545T16 571Z" />
<glyph unicode="I" glyph-name="I" horiz-adv-x="525" d="M95 1Q84 6 79 12T73 23T72 38Q72 65 90 73Q96 76 157 76H220V535H157Q150 535 139 535T124 535Q100 535 91 538T75 552Q72 558 72 573Q72 603 93 610Q97 611 264 611H430Q432 609 436 607T444 602T449
594Q452 588 452 573Q452 546 434 538Q428 535 367 535H304V76H367Q374 76 385 76T400 76Q424 76 433 73T449 59Q452 53 452 38Q452 29 452 26T450 18T443 9T430 1H95Z" />
<glyph unicode="J" glyph-name="J" horiz-adv-x="525" d="M202 543T202 573T224 610H228Q231 610 237 610T251 610T269 610T291 611T315 611T342 611H457Q471 602 475 595T479 573Q479 549 462 538Q454 535 432 535H408V328Q408 159 408 133T402 93Q386 48 340
19T229 -11Q158 -11 108 16T57 100Q57 129 73 141T108 154Q128 154 143 140T159 102Q159 93 155 79Q188 65 228 65Q228 65 228 65T230 65Q291 65 318 106Q323 115 323 139T324 329V535H274L224 536Q202 543 202 573Z" />
<glyph unicode="K" glyph-name="K" horiz-adv-x="525" d="M41 1Q18 8 18 38Q18 61 35 73Q42 76 61 76H81V535H61Q42 535 35 538Q18 549 18 573Q18 583 20 591Q26 604 36 607T70 611Q75 611 91 611T118 611H193Q207 603 210 596T214 573Q214 549 198 538Q191 535
172 535H152V421Q152 344 152 326T153 309L242 422L329 534Q327 535 322 536T314 538T308 542T303 548T300 558T298 573Q298 600 316 608Q322 611 392 611H463Q477 602 481 595T485 573Q485 556 478 547T464 537T446 535Q445 535 444 535T441 535H420L281 357L436
77L454 76Q473 75 478 73Q495 62 495 38Q495 10 473 1H345Q334 5 329 11T324 21T323 38Q323 51 324 56T332 68T355 77L233 296L152 192V76H172Q191 76 198 73Q214 63 214 38Q214 9 193 1H41Z" />
<glyph unicode="L" glyph-name="L" horiz-adv-x="525" d="M27 594Q34 606 43 608T84 611Q91 611 114 611T154 611Q167 611 186 611T213 611Q257 611 269 605T281 573Q281 546 263 538Q257 535 222 535H185V76H404V118Q404 123 404 132T404 145Q404 167 411 176T446
186Q446 186 448 186T453 186Q478 186 486 167Q488 161 488 93Q488 83 488 69T488 50Q488 24 485 17T466 1L258 0H147Q137 0 121 0T99 0Q47 0 36 5T25 38Q25 59 35 69Q44 76 76 76H101V535H76Q74 535 70 535T64 535Q36 535 27 552Q25 557 25 573T27 594Z" />
<glyph unicode="M" glyph-name="M" horiz-adv-x="525" d="M50 535Q37 536 31 537T18 547T12 573Q12 598 22 604T62 611Q66 611 75 611T91 611Q97 611 107 611T121 611Q146 611 158 607T178 587Q183 579 222 446T261 293Q261 289 262 288Q263 288 263 292Q263 311
298 434T346 588Q353 602 366 606T402 611Q406 611 417 611T435 611Q438 611 443 611T450 611Q488 611 500 605T512 573Q512 556 506 547T493 537T474 535H459V76H474Q487 75 493 74T505 64T512 38Q512 11 494 3Q490 1 424 1Q416 1 404 1T386 1Q356 1 346 7T335
38Q335 55 341 64T354 74T373 76H388V302Q388 512 387 519Q382 482 346 359T304 228Q292 204 262 204T220 228Q215 237 179 359T137 519Q136 512 136 302V76H151Q164 75 170 74T182 64T189 38Q189 11 171 3Q167 1 101 1Q93 1 81 1T63 1Q33 1 23 7T12 38Q12 55 18
64T31 74T50 76H65V535H50Z" />
<glyph unicode="N" glyph-name="N" horiz-adv-x="525" d="M20 571Q20 597 30 604T73 611Q78 611 88 611T105 611T121 611T136 611Q151 611 159 611T177 607T189 601T198 587T206 568T217 537T231 497Q354 142 365 95L368 84V535H347Q346 535 345 535T342 535Q315
535 306 552Q304 556 304 573Q304 586 304 590T310 600T326 611H482Q497 602 500 596T504 573Q504 559 501 551T491 540T478 536T460 535H439V25Q432 7 424 4T389 0Q387 0 382 0T374 0Q334 0 322 31L293 115Q171 468 159 517L156 528V76H177Q178 76 180 76T183
76Q195 76 202 75T215 64T221 38Q221 10 199 1H43Q32 5 27 11T22 21T21 38Q21 39 21 41T21 44Q21 65 37 73Q44 76 64 76H85V535H64Q49 535 42 536T28 545T20 571Z" />
<glyph unicode="O" glyph-name="O" horiz-adv-x="525" d="M102 588Q140 621 240 621Q323 621 335 620Q393 613 422 588Q450 560 459 493T468 306Q468 185 460 118T422 23Q383 -10 289 -10Q284 -10 275 -10T262 -10T249 -10T235 -10Q141 -10 102 23Q74 50 65 118T56
306Q56 427 64 494T102 588ZM363 513Q357 523 347 530T324 540T302 544T280 546H268Q192 546 167 521Q150 501 145 452T140 300Q140 235 142 197T151 130T172 89T207 71T262 65Q317 65 341 81T374 144T384 300Q384 474 363 513Z" />
<glyph unicode="P" glyph-name="P" horiz-adv-x="525" d="M41 1Q19 9 19 32Q19 33 19 35T19 38Q19 63 36 73Q42 76 65 76H89V535H65Q64 535 61 535T55 535Q34 535 27 544T19 576Q19 602 41 610H49Q57 610 70 610T100 610T136 611T175 611Q190 611 217 611T255
612Q322 612 363 598T441 537Q480 486 480 427Q480 426 480 424T480 421Q480 354 447 311T378 251Q339 230 275 230Q269 230 257 230T239 230H173V76H197Q220 76 227 73Q244 62 244 38Q244 10 222 1H41ZM396 421Q396 461 369 491T300 533Q294 534 233 535H173V306H233Q294
307 300 308Q345 319 370 352T396 421Z" />
<glyph unicode="Q" glyph-name="Q" horiz-adv-x="525" d="M56 306Q56 380 58 426T68 510T87 568T120 600T170 617T240 621Q323 621 335 620Q393 613 422 588Q450 560 459 493T468 306Q468 124 447 66Q433 23 394 6L424 -53Q454 -112 454 -118Q454 -128 441 -138H377Q367
-135 363 -129T333 -69L304 -11H254Q205 -10 180 -8T128 6T91 36T70 92T58 178T56 306ZM227 151Q227 171 262 171Q266 171 270 171T276 171H281Q292 171 296 171T305 170T313 165T317 158T323 145T332 127L353 88Q356 88 361 95T372 131T382 202Q384 228 384 306Q384
452 371 492T304 544Q296 545 251 545Q230 545 215 543T188 534T169 520T155 497T147 466T143 423T141 371T140 306Q140 248 141 217T146 154T157 109T178 83T212 68T262 65H266L264 70Q261 75 256 85T247 105Q227 145 227 151Z" />
<glyph unicode="R" glyph-name="R" horiz-adv-x="525" d="M16 571Q16 597 27 604T76 612Q83 612 107 612T148 611Q268 611 294 605Q346 592 389 550T432 440Q432 394 410 359Q393 329 366 310L358 303Q387 273 399 239Q405 219 405 178T408 106T421 68Q425 65
428 65Q434 65 436 74T438 95T441 112Q450 130 480 130Q481 130 482 130T485 130Q519 130 522 100Q522 79 516 56T488 11T434 -11Q421 -11 408 -8T377 5T344 37T324 93Q322 101 322 154L321 209Q304 257 257 267Q252 268 207 268H165V76H186Q187 76 189 76T192
76Q204 76 211 75T224 64T230 38Q230 10 208 1H39Q28 5 23 11T18 21T17 38Q17 39 17 41T17 44Q17 65 33 73Q40 76 60 76H81V535H60Q45 535 38 536T24 545T16 571ZM348 440Q348 478 321 502T260 532Q252 534 208 535H165V344H208Q212 344 223 344T239 345T252 346T266
348T278 351T293 358Q348 387 348 440Z" />
<glyph unicode="S" glyph-name="S" horiz-adv-x="525" d="M52 454Q52 524 107 572T229 621Q266 621 274 620Q326 610 360 588L371 581Q377 594 379 598T386 610T397 619T412 622Q433 622 439 611T446 570Q446 564 446 546T445 515Q445 507 445 495T445 479Q445
441 444 431T436 417Q428 408 403 408T370 417Q361 424 361 434Q361 439 360 448T351 476T331 509T295 535T238 546Q194 546 163 522T132 458Q132 435 148 412Q155 401 166 393T192 380T218 371T247 364T270 359Q341 342 349 339Q389 325 418 296T461 229Q472 201
472 164Q469 92 417 41T287 -11Q240 -11 200 -1T143 19L126 29Q117 6 109 -2Q100 -11 84 -11Q64 -11 58 1T51 42Q51 49 51 66T52 95V135Q52 173 53 180T61 194Q70 203 95 203Q119 203 127 194Q136 186 136 168Q143 66 284 66Q285 66 287 66T290 66Q325 66 350 85Q391
115 391 165Q391 204 369 228T322 260Q320 260 255 275T185 293Q123 309 88 355T52 454Z" />
<glyph unicode="T" glyph-name="T" horiz-adv-x="525" d="M129 38Q129 51 129 55T135 65T151 76H220V535H110V501Q110 470 109 464T101 450Q93 442 68 442Q67 442 64 442T60 442Q37 442 28 461Q26 466 26 527L27 589Q36 607 49 610H55Q61 610 72 610T97 610T131
610T170 611T215 611T264 611H476Q478 609 482 606T488 602T491 599T494 595T496 591T498 584T498 575T498 562Q498 558 498 546T498 526T498 505T498 488Q498 468 495 459T480 444Q476 442 456 442Q431 442 423 450Q416 457 415 463T414 501V535H304V76H374Q389
67 392 61T396 38Q396 10 374 1H151Q140 5 135 11T130 21T129 38Z" />
<glyph unicode="U" glyph-name="U" horiz-adv-x="525" d="M506 611Q520 602 524 595T528 573Q528 549 511 538Q504 535 481 535H457V364Q457 189 456 182Q448 101 394 45T262 -11Q189 -11 132 43T68 182Q67 189 67 364V535H43Q42 535 39 535T33 535Q23 535 16
537T3 548T-3 573Q-3 602 19 610Q20 611 111 611H200Q214 602 218 595T222 573Q222 549 205 538Q198 535 175 535H151V359Q151 333 151 291Q152 177 156 162Q157 160 157 159Q165 123 193 95T262 66Q303 66 330 94T367 159Q371 175 371 191T373 359V535H349Q348
535 345 535T339 535Q329 535 322 537T309 548T303 573Q303 589 306 595T325 611H506Z" />
<glyph unicode="V" glyph-name="V" horiz-adv-x="525" d="M484 611Q499 602 502 595T505 573Q505 560 504 554T493 541T465 535H447L384 278Q321 19 319 14Q308 -7 278 -7Q275 -7 270 -7T262 -7T255 -7T246 -7Q216 -7 205 14Q203 19 140 278L78 535H59Q45 535
38 536T25 547T19 573Q19 574 19 575T19 578Q19 603 41 610Q42 611 119 611H195Q210 602 213 596T217 573Q217 561 216 555T206 542T179 535H164Q166 529 188 435T235 231T261 94L262 84V88Q263 91 263 94Q265 121 289 231T336 438L360 535H345Q322 535 315 543T308
566Q308 567 308 569T308 573Q308 586 308 590T314 600T330 611H484Z" />
<glyph unicode="W" glyph-name="W" horiz-adv-x="525" d="M42 535Q26 536 19 545T12 564V573Q12 603 33 610Q37 611 101 611Q108 611 119 611T134 611Q158 611 167 608T183 594Q186 588 186 573Q186 563 186 559T182 547T169 538T143 535H122V531Q124 517 133
446T155 266T172 96V84L173 102Q176 157 192 243T215 346Q226 367 259 367Q260 367 261 367T262 367T263 367T265 367Q298 367 309 346Q316 329 332 243T351 102L352 84V96Q356 161 368 266T390 444T402 531V535H381Q366 535 359 536T345 547T338 573Q338 600 356
608Q362 611 425 611Q432 611 443 611T459 611Q484 611 493 608T509 594Q512 588 512 573Q512 538 482 535H474L439 276Q406 26 402 11Q398 2 389 -3Q387 -3 386 -4L380 -7H359Q358 -7 355 -7T349 -7Q325 -7 313 13Q307 29 285 139T263 275Q263 283 262 283Q261
282 261 274Q261 248 239 137T211 13Q199 -7 175 -7Q173 -7 170 -7T165 -7H144Q136 -3 127 3Q121 10 117 36T85 276L50 535H42Z" />
<glyph unicode="X" glyph-name="X" horiz-adv-x="525" d="M39 571Q39 597 49 604T93 611Q99 611 115 611T141 611H218Q233 602 236 595T239 573Q239 538 210 535Q202 535 202 534T215 507T243 454L257 428L307 535H298Q266 538 266 573Q266 584 267 588T273 598T289
611H366Q373 611 384 611T401 611Q442 611 454 605T466 573Q466 546 448 538Q442 535 421 535H398L299 327Q299 323 362 201L426 77L449 76Q467 76 475 75T489 65T495 38Q495 11 477 3Q473 1 395 1H317Q295 8 295 38Q295 73 325 76L334 77Q333 78 314 117T276 196L257
235L239 196Q221 157 204 118T186 77Q190 76 196 76Q211 74 218 67T227 55T228 38Q228 28 227 24T221 13T206 1H50Q28 9 28 32Q28 33 28 35T28 38Q28 63 45 73Q51 76 73 76H96L214 324Q215 327 162 431L108 535H85Q84 535 82 535T79 535Q67 535 60 536T46 546T39
571Z" />
<glyph unicode="Y" glyph-name="Y" horiz-adv-x="525" d="M178 1Q167 5 162 11T157 21T156 38Q156 39 156 41T156 44Q156 65 172 73Q180 76 199 76H220V245L86 535H64Q44 535 36 538Q20 548 20 573Q20 587 21 591Q27 604 37 607T72 611Q77 611 93 611T121 611H198Q212
602 216 595T220 573Q220 568 219 563T217 555T214 549T211 544T207 541T203 538T198 537T194 536T190 536L188 535Q179 535 179 534L188 516Q196 497 208 470T232 415T252 363T261 332Q261 329 262 329T263 332Q263 354 333 508L345 534Q345 535 336 535Q305 539
305 567Q305 568 305 570T305 573Q305 589 308 595T327 611H483Q505 598 505 573Q505 549 488 538Q481 535 460 535H438L304 245V76H325Q326 76 328 76T331 76Q343 76 350 75T363 64T369 38Q369 10 347 1H178Z" />
<glyph unicode="Z" glyph-name="Z" horiz-adv-x="525" d="M71 1Q60 5 55 11T49 23T48 39Q48 41 48 43T48 46Q48 57 59 76T131 184Q171 243 197 282L366 535H144V501Q144 470 143 464T135 450Q127 442 102 442Q101 442 98 442T94 442Q71 442 62 461Q60 466 60 527L61
589Q70 607 83 610H88Q93 610 102 610T124 610T154 610T188 611T227 611T270 611H454Q456 609 461 606T467 601T471 597T474 591T475 584T476 572Q476 570 476 568T476 565Q476 554 465 535T393 427Q353 368 327 329L158 76H397V120Q397 125 397 133T397 146Q397
169 404 179T439 189Q470 189 479 169Q481 164 481 95Q481 84 481 69T481 48Q481 24 478 16T459 1H71Z" />
<glyph unicode="[" glyph-name="bracketleft" horiz-adv-x="525" d="M237 -82Q221 -78 214 -58V305Q214 669 216 673Q221 687 232 690T278 694Q285 694 309 694T350 694H461Q462 693 467 690T474 685T478 679T482 670T483 656Q483 632 471 625T428 617Q422 617
406 617T379 618H298V-7H379Q388 -7 401 -7T420 -7Q460 -7 471 -13T483 -45Q483 -55 483 -59T477 -70T461 -82H237Z" />
<glyph unicode="\" glyph-name="backslash" horiz-adv-x="525" d="M58 659Q58 673 68 683T93 694Q114 694 125 673Q132 659 297 314T464 -36Q466 -44 466 -48Q466 -66 454 -74T431 -83Q410 -83 399 -62Q391 -47 226 298T60 648Q58 656 58 659Z" />
<glyph unicode="]" glyph-name="bracketright" horiz-adv-x="525" d="M41 632T41 656T53 687T99 695Q107 695 133 695T177 694H288Q307 681 310 669V-58Q303 -76 288 -82H64Q41 -73 41 -45Q41 -21 53 -14T96 -6Q102 -6 118 -6T145 -7H226V618H145Q136 618 121
618T100 618Q66 618 54 625Z" />
<glyph unicode="^" glyph-name="asciicircum" horiz-adv-x="525" d="M138 460Q121 460 109 479T96 512Q96 527 106 534Q109 536 178 571T253 609Q256 611 264 611Q272 610 343 574Q357 567 369 561T389 550T402 543T411 538T416 535T420 532T422 529T425 525Q428
518 428 512Q428 498 416 479T386 460Q386 460 385 460T384 460Q376 460 316 496L262 526L208 496Q147 460 138 460Z" />
<glyph unicode="_" glyph-name="underscore" horiz-adv-x="525" d="M57 -60Q57 -33 86 -25H438Q468 -34 468 -60T438 -95H86Q57 -86 57 -60Z" />
<glyph unicode="`" glyph-name="grave" horiz-adv-x="525" d="M176 479Q176 563 227 622T310 681Q324 680 337 667T350 641Q350 627 340 619T312 599T280 566Q256 531 252 485V471Q261 472 262 472Q285 472 302 455T320 414Q320 389 303 373T261 357Q223 357 200
391T176 479Z" />
<glyph unicode="a" glyph-name="a" horiz-adv-x="525" d="M126 306Q105 306 90 321T74 359Q74 439 211 439Q268 439 276 438Q343 426 383 390T430 306Q431 301 431 190V81Q446 79 465 78T492 76T509 72T521 60T524 38Q524 11 506 3Q502 1 466 1Q426 1 406 5T379
14T355 36L345 30Q284 -6 205 -6Q135 -6 92 39T48 141Q48 182 79 212T158 256T252 278T342 285H347V290Q347 315 325 335T267 362Q258 363 224 363Q189 363 185 362H179L178 358Q178 353 178 352T176 345T174 337T170 330T165 322T158 316T150 311T139 308T126
306ZM132 140Q132 115 157 93T224 70Q269 70 302 87T344 133Q346 139 347 175V211H339Q256 209 194 190T132 140Z" />
<glyph unicode="b" glyph-name="b" horiz-adv-x="525" d="M293 -6Q229 -6 174 38Q171 13 163 7T135 1Q134 1 133 1T131 1Q130 1 127 1T122 1Q99 1 90 23L89 279V535H58L27 536Q4 543 4 573Q4 583 6 591Q12 604 21 607T52 611Q56 611 69 611T90 611Q97 611 108
611T124 611Q146 611 156 608T171 591Q173 586 173 491V396L182 402Q217 424 256 431Q280 437 309 437Q376 437 434 379T492 217Q492 162 473 118T422 47T358 8T293 -6ZM409 215Q409 269 377 315T283 361Q255 361 224 344T177 297L173 290V167Q189 124 213 97T278
70Q330 70 369 111T409 215Z" />
<glyph unicode="c" glyph-name="c" horiz-adv-x="525" d="M291 -6Q196 -6 131 60T66 216Q66 296 119 361Q154 403 200 421T273 439Q275 440 293 440Q296 440 302 440T313 440Q400 440 433 409Q454 388 454 359Q454 335 439 321T402 306Q380 306 365 321T350 357V362L340
363Q339 363 326 363T303 364Q280 364 266 362Q217 352 184 313T151 215Q151 153 199 112T313 70Q341 70 357 85T381 118T394 140Q402 146 424 146Q443 146 447 144Q466 137 466 117Q466 106 457 88T429 47T374 10T291 -6Z" />
<glyph unicode="d" glyph-name="d" horiz-adv-x="525" d="M31 216Q31 307 88 372T230 437Q292 437 342 405L351 399V535H320L289 536Q266 543 266 573Q266 583 268 591Q274 604 283 607T314 611Q318 611 331 611T352 611Q359 611 370 611T385 611Q411 611 420
607T435 586V76H498Q512 67 516 60T520 38Q520 9 498 1H436Q429 1 416 1T398 0Q374 0 363 7T351 34V43L342 36Q288 -6 223 -6Q143 -6 87 58T31 216ZM351 290Q347 302 337 316T302 346T244 361Q193 361 154 319T115 215Q115 152 152 111T235 70Q314 70 351 170V290Z"
/>
<glyph unicode="e" glyph-name="e" horiz-adv-x="525" d="M48 217Q48 295 100 361T248 439L258 440Q268 440 274 440Q329 438 369 416T428 359T456 292T464 228Q464 215 461 208T454 198T442 190L288 189H135L138 179Q153 132 199 102T303 71Q336 71 353 86T380
120T398 143Q404 146 422 146Q453 146 462 126Q464 120 464 116Q464 84 416 39T285 -6Q187 -6 118 59T48 217ZM377 264Q371 291 365 306T341 338T294 362Q288 363 264 363Q225 363 190 336T139 264H377Z" />
<glyph unicode="f" glyph-name="f" horiz-adv-x="525" d="M43 395Q44 405 44 408T47 416T53 423T66 431H176V461Q176 500 182 518Q201 570 252 593T353 617Q399 614 418 593T437 548Q437 528 424 514T387 499Q365 499 353 511T338 537V541H328Q275 536 261 494Q260
490 260 460V431H327Q334 431 346 431T364 431Q393 431 404 424T416 393T405 362T365 355Q360 355 348 355T327 355H260V76H319Q375 76 388 71T401 38Q401 27 400 23T395 12T379 1H58Q47 6 42 12T36 23T35 38Q35 65 53 73Q59 76 117 76H176V355H121Q116 355 107
355T93 355Q64 355 54 362T43 395Z" />
<glyph unicode="g" glyph-name="g" horiz-adv-x="525" d="M60 274Q60 337 107 386T233 436Q278 436 316 417L329 410L338 416Q384 442 427 442T489 423T509 381Q509 359 494 346T460 332Q448 332 440 338Q432 341 427 348T419 360T415 365Q414 364 410 364L383
355Q406 320 406 274Q406 211 358 162T233 112Q189 112 155 128L146 133Q142 125 142 115Q142 99 150 85T175 71Q182 72 187 70Q188 70 195 70T218 70T254 69Q259 69 275 69T297 69T318 68T340 66T361 62T384 57T405 49T428 38Q495 -1 495 -76Q495 -143 427 -186T262
-229Q161 -229 94 -185T29 -73Q30 -60 33 -48T39 -26T47 -8T57 8T67 20T77 30T86 38L91 43Q91 44 86 53T75 80T70 117Q70 142 89 183L83 194Q60 232 60 274ZM321 274Q321 312 296 337T230 362Q197 362 171 338T145 274Q145 235 170 211T233 187Q273 187 297 212T321
274ZM422 -78Q422 -54 408 -38T367 -15T315 -6T255 -4Q245 -4 227 -4T200 -4Q198 -4 193 -4T183 -3Q148 -3 125 -26Q102 -49 102 -78Q102 -110 151 -132T261 -154Q321 -154 371 -132T422 -78Z" />
<glyph unicode="h" glyph-name="h" horiz-adv-x="525" d="M4 38Q4 53 8 60T27 76H89V535H58L27 536Q4 543 4 573Q4 583 6 591Q12 604 21 607T52 611Q56 611 69 611T90 611Q97 611 108 611T124 611Q146 611 156 608T171 591Q173 586 173 489Q173 394 175 394L186
402Q197 410 219 420T269 434Q278 436 306 436Q343 436 371 423Q411 402 423 365T435 265Q435 256 435 238T435 211Q435 204 435 198V76H498Q512 67 516 60T520 38Q520 9 498 1H308Q286 10 286 32Q286 33 286 35T286 38T286 42T286 46Q286 65 303 73Q309 76 329
76H351V188Q351 204 351 230T352 266Q352 320 340 340T288 361Q253 361 222 341T176 274L174 264L173 170V76H236Q250 67 254 60T258 38Q258 9 236 1H27Q4 8 4 38Z" />
<glyph unicode="i" glyph-name="i" horiz-adv-x="525" d="M202 538T202 559T218 596T260 612Q283 612 300 597T317 560Q317 538 300 523T260 507Q235 507 219 522ZM72 38Q72 46 72 49T74 58T81 68T94 76H233V355H167L102 356Q80 363 80 393Q80 418 91 425T138
432Q145 432 165 432T200 431H295Q297 429 302 426T308 422T312 417T315 410T316 400T317 385T318 363Q318 354 318 314T317 241V76H378Q385 76 396 76T411 76Q434 76 443 73T459 59Q462 53 462 38Q462 29 462 26T460 18T453 9T440 1H94Q72 8 72 33Q72 34 72 35T72
38Z" />
<glyph unicode="j" glyph-name="j" horiz-adv-x="525" d="M261 559Q261 580 277 596T319 612Q342 612 359 597T376 560T360 523T320 507Q296 507 279 523T261 559ZM123 393Q123 422 145 430H148Q151 430 156 430T169 430T185 430T205 431T227 431T251 431H354Q356
430 360 427T366 422T370 418T373 413T374 405T376 393T376 378T377 356Q377 345 377 286T376 176Q376 -67 371 -88Q362 -123 342 -151T299 -194Q254 -228 180 -228Q84 -226 56 -177Q49 -162 48 -148Q48 -123 61 -107T100 -91Q105 -91 110 -92Q152 -101 152 -144V-150L160
-151H193Q195 -151 198 -151T203 -151Q241 -151 267 -121Q284 -97 288 -74T292 23Q292 36 292 78T292 151V355H218L145 356Q123 365 123 387Q123 388 123 390T123 393Z" />
<glyph unicode="k" glyph-name="k" horiz-adv-x="525" d="M314 1Q292 8 292 38Q292 62 308 73Q312 75 326 76L338 77L290 140Q279 154 267 171T248 196L242 204L207 171L173 139V76H206Q209 76 214 76T221 76Q241 76 251 69T262 38Q262 11 244 3Q240 1 138 1Q122
1 100 1T70 0Q31 0 22 7T13 42Q13 65 31 73Q37 76 69 76H102V535H69Q66 535 61 535T54 535Q34 535 24 542T13 573Q13 588 15 593Q23 605 30 608T56 611Q60 611 73 611T95 611Q113 611 122 611T140 610T152 609T159 607T163 603T167 597T173 589V413L174 237L295
355H275Q260 355 253 356T239 367T232 393Q232 419 243 425T304 431Q311 431 329 431T359 431H464Q479 422 482 415T485 393Q485 364 464 356L431 355H398L293 254L427 76H486Q501 67 504 60T507 38Q507 28 507 24T501 12T486 1H314Z" />
<glyph unicode="l" glyph-name="l" horiz-adv-x="525" d="M51 573Q51 602 73 610H76Q79 610 84 610T97 610T113 610T133 611T155 611T179 611H282Q301 598 304 586V76H452Q466 67 470 60T474 38Q474 10 452 1H73Q51 9 51 32Q51 33 51 35T51 38Q51 54 54 60T73
76H220V535H146L73 536Q51 545 51 567Q51 568 51 570T51 573Z" />
<glyph unicode="m" glyph-name="m" horiz-adv-x="525" d="M116 405Q163 436 200 436Q255 436 281 390L285 394Q289 398 292 400T301 407T314 415T329 423T346 429T366 434T389 436H392Q425 436 448 411Q469 390 474 360T480 268Q480 263 480 251T480 232Q480 216
480 203V76H497Q515 75 520 73Q530 66 535 56Q536 52 536 38Q536 9 515 1H396Q382 6 378 13T374 32Q374 33 374 35T374 38Q374 73 402 76H409V191Q409 201 409 218T409 242Q409 317 404 339T375 361Q343 361 323 332T299 264Q298 258 298 165V76H315Q333 75 338
73Q348 66 353 56Q354 52 354 38Q354 9 333 1H214Q200 6 196 13T192 32Q192 33 192 35T192 38Q192 73 220 76H227V191Q227 201 227 218T227 242Q227 317 222 339T193 361Q161 361 141 332T117 264Q116 258 116 165V76H133Q151 75 156 73Q166 66 171 56Q172 52 172
38Q172 9 151 1H11Q-12 8 -12 38Q-12 48 -10 56Q-5 66 5 73Q10 75 28 76H45V355H28Q10 356 5 358Q-5 364 -10 375Q-12 383 -12 393Q-12 419 11 431H52Q56 431 62 431T70 431Q91 431 100 427T116 405Z" />
<glyph unicode="n" glyph-name="n" horiz-adv-x="525" d="M89 431Q94 431 105 431T122 432Q147 432 160 426T173 399Q173 394 175 394Q177 394 191 404T233 425T298 436Q343 436 371 423Q411 402 423 365T435 265Q435 256 435 238T435 211Q435 204 435 198V76H498Q512
67 516 60T520 38Q520 9 498 1H308Q294 6 290 13T286 32Q286 33 286 35T286 38Q286 38 286 40T286 45Q286 65 303 73Q309 76 329 76H351V188Q351 204 351 230T352 266Q352 320 340 340T288 361Q253 361 222 341T176 274L174 264L173 170V76H236Q250 67 254 60T258
38Q258 9 236 1H27Q4 8 4 38Q4 53 8 60T27 76H89V355H58L27 356Q4 363 4 393Q4 408 8 415T27 431H89Z" />
<glyph unicode="o" glyph-name="o" horiz-adv-x="525" d="M52 216Q52 318 118 379T261 440Q343 440 407 378T472 216Q472 121 410 58T262 -6Q176 -6 114 58T52 216ZM388 225Q388 281 351 322T261 364Q213 364 175 325T136 225Q136 158 174 114T262 70T350 114T388 225Z" />
<glyph unicode="p" glyph-name="p" horiz-adv-x="525" d="M89 431Q94 431 104 431T121 432Q173 432 173 401V396L182 402Q237 437 305 437Q376 437 434 378T492 217Q492 146 459 93T382 17T291 -6Q261 -6 232 5T188 26L174 37Q173 37 173 -54V-146H236Q250 -155
254 -162T258 -184Q258 -213 236 -221H27Q4 -214 4 -184Q4 -169 8 -162T27 -146H89V355H58L27 356Q4 363 4 393Q4 408 8 415T27 431H89ZM409 215Q409 269 377 315T283 361Q255 361 224 344T177 297L173 290V167Q189 124 213 97T278 70Q330 70 369 111T409 215Z"
/>
<glyph unicode="q" glyph-name="q" horiz-adv-x="525" d="M34 215Q34 309 91 368T222 436Q224 436 231 436T242 437Q309 437 372 390V401Q372 419 381 428T414 437Q426 437 432 436T444 430T456 412V-146H489Q492 -146 497 -146T504 -146Q524 -146 534 -153T545
-184Q545 -211 527 -219Q523 -221 414 -221Q397 -221 374 -221T342 -222Q304 -222 294 -216T283 -184Q283 -157 301 -149Q307 -146 339 -146H372V-51Q372 43 371 43L364 38Q357 33 345 26T318 12T280 -1T236 -6Q155 -6 95 55T34 215ZM117 215Q117 152 157 111T250
70Q289 70 318 92T363 146Q372 163 372 192V215L371 263Q339 360 254 360Q206 360 162 321T117 215Z" />
<glyph unicode="r" glyph-name="r" horiz-adv-x="525" d="M229 369Q297 437 394 437Q436 437 461 417T487 368Q487 347 473 332T438 317Q428 317 420 320T407 327T398 337T393 347T390 356L388 361Q348 356 324 345Q228 299 228 170Q228 162 228 151T229 138V76H293Q300
76 311 76T327 76Q352 76 361 73T377 59Q380 53 380 38Q380 10 359 1H47Q24 8 24 38Q24 54 28 61T47 76H145V355H96L47 356Q24 363 24 393Q24 409 28 416T47 431H207Q223 419 226 414T229 393Q229 392 229 390T229 387V369Z" />
<glyph unicode="s" glyph-name="s" horiz-adv-x="525" d="M72 317Q72 361 108 396T229 439Q231 439 245 439T268 440Q303 439 324 435T353 427T363 423L372 432Q380 440 397 440Q417 440 423 428T430 395Q430 390 430 381T429 366Q429 360 429 350T429 335Q429
311 422 302T387 293Q364 293 355 300T346 316T343 336T325 353Q306 364 257 364Q209 364 178 351T147 317Q147 284 231 272Q327 256 357 247Q458 210 458 129V121Q458 74 413 34T271 -6Q246 -6 224 -3T189 5T165 14T150 22T144 26Q142 23 139 18T135 11T132 6T128
1T124 -2T119 -4T113 -5T104 -6Q84 -6 78 6T71 43Q71 49 71 61T72 79Q72 132 73 141T81 157Q90 166 115 166Q135 166 142 162T157 140Q168 108 191 90T260 70Q297 70 323 76T361 91T379 110T384 129Q384 157 346 171T247 195T165 212Q119 228 96 256T72 317Z" />
<glyph unicode="t" glyph-name="t" horiz-adv-x="525" d="M25 395Q26 405 26 408T29 416T35 423T48 431H145V481L146 532Q154 547 161 550T184 554H189Q218 554 227 534Q229 529 229 480V431H405Q406 430 411 427T418 422T422 416T426 407T427 393Q427 387 427
382T424 374T421 368T417 363T413 360T408 358L405 356L317 355H229V249Q229 237 229 214T228 179Q228 126 241 98T295 70Q354 70 365 149Q366 167 375 174Q383 182 407 182Q407 182 410 182T415 182Q438 182 446 166Q448 161 448 148Q448 84 398 39T282 -6Q226
-6 189 29T146 128Q145 134 145 247V355H96Q91 355 84 355T72 355Q46 355 36 362T25 395Z" />
<glyph unicode="u" glyph-name="u" horiz-adv-x="525" d="M436 1Q426 1 413 1T394 1Q373 1 365 5T351 26L342 21Q309 4 263 -4Q254 -5 227 -5Q118 -5 96 67Q91 82 90 101T89 227V355H58L27 356Q4 363 4 393Q4 403 6 411Q12 424 21 427T52 431Q56 431 69 431T90
431Q141 431 151 429T168 417Q171 412 173 409V254L174 100Q182 70 244 70Q320 70 344 119Q349 130 350 144T351 248V355H320L289 356Q266 363 266 393Q266 408 270 415T289 431H351Q359 431 370 431T386 431Q409 431 418 428T433 411Q435 406 435 241V76H498Q512
67 516 60T520 38Q520 9 498 1H436Z" />
<glyph unicode="v" glyph-name="v" horiz-adv-x="525" d="M24 392Q24 417 36 424T79 432Q85 432 103 432T132 431H215Q229 422 233 415T237 393Q237 376 230 367T216 357T198 355Q197 355 196 355T193 355H172L262 77L352 355H331Q330 355 327 355T323 355Q313
355 307 357T294 368T288 393Q288 409 291 415T310 431H478Q491 423 495 416T500 393Q500 364 478 356L452 355H426L374 190Q320 24 318 20Q306 -4 273 -4Q270 -4 267 -4T262 -4T258 -4T251 -4Q218 -4 206 20Q204 24 150 190L98 355H72L47 356Q24 363 24 392Z"
/>
<glyph unicode="w" glyph-name="w" horiz-adv-x="525" d="M54 355Q38 355 29 361T18 373T16 388Q16 389 16 390T16 393Q16 423 37 430Q41 431 125 431Q133 431 145 431T162 431Q206 431 218 425T230 393Q230 366 212 358Q206 355 174 355Q141 355 141 354L150
296Q181 110 181 89V84Q182 85 183 96Q185 118 199 173T218 237Q223 247 245 259H264Q265 259 266 259T268 259Q295 259 309 240Q315 229 329 174T343 92Q343 84 344 84V86Q344 88 344 91T345 97Q347 125 356 187T374 301T383 354Q383 355 350 355Q347 355 342
355T333 355Q314 355 304 362T294 393Q294 420 312 428Q318 431 401 431Q409 431 421 431T440 431Q484 431 496 425T508 393Q508 382 508 377T498 363T470 355L455 354Q455 353 441 271T413 104T396 16Q385 -4 355 -4Q355 -4 354 -4T351 -4Q315 -4 305 9T280 79Q278
90 276 96Q265 149 265 169Q265 176 264 169Q263 166 263 162Q261 130 248 79T230 18Q219 -4 183 -4Q182 -4 179 -4T175 -4L151 -3Q134 5 127 17L112 102Q97 188 83 270T69 354Q62 355 54 355Z" />
<glyph unicode="x" glyph-name="x" horiz-adv-x="525" d="M29 38Q29 48 29 51T31 59T38 67T51 76H117L171 149Q224 222 224 223L124 355H90Q88 355 84 355T78 355Q52 355 44 362T35 396Q35 404 36 409T42 420T57 430Q58 431 141 431H223Q238 422 241 415T244 393Q244
389 244 383T237 367T216 355Q209 355 209 354L234 319Q259 286 260 286L308 354Q308 355 301 355Q285 356 278 365T270 384L271 393Q271 420 289 428Q295 431 376 431H459Q460 430 465 427T472 422T476 416T480 407T481 393Q481 368 470 362T434 355Q432 355 430
355T425 355H392L344 290Q295 225 295 223Q294 223 309 203T350 149L405 77L439 76Q442 76 446 76T453 76Q475 76 485 69T495 38Q495 10 473 1H303Q281 9 281 32Q281 33 281 35T281 38Q281 49 282 54T290 67T313 76Q324 76 324 77L259 173L197 77Q202 76 209 76Q225
75 233 68T241 55T242 38Q242 28 242 24T236 12T221 1H51Q37 6 33 13T29 32Q29 33 29 35T29 38Z" />
<glyph unicode="y" glyph-name="y" horiz-adv-x="525" d="M236 1Q230 10 102 355H75L49 356Q26 363 26 393Q26 403 28 411Q34 424 44 427T80 431Q86 431 104 431T134 431H217Q232 422 235 416T239 393Q239 379 236 371T226 360T214 356T197 355L179 354V353L188
330Q197 306 209 272T235 201T259 133T271 89V84L274 95Q279 122 298 185T335 300T352 354Q352 355 331 355Q312 355 304 358Q288 368 288 393Q288 408 291 415T310 431H478Q479 430 484 427T491 422T495 416T499 407T500 393Q500 369 489 362T458 355Q457 355
455 355T452 355Q426 355 425 353Q420 337 351 124T280 -94Q240 -195 168 -220Q147 -228 125 -228Q89 -228 66 -201T42 -139Q42 -116 56 -102T93 -87Q117 -87 130 -102T144 -135V-138H126Q121 -148 121 -150T130 -152Q182 -147 207 -87Q211 -78 223 -40T236 1Z"
/>
<glyph unicode="z" glyph-name="z" horiz-adv-x="525" d="M56 1Q40 7 37 14T34 41Q34 59 36 64Q39 67 43 73Q65 95 191 213T341 355H133V334Q133 306 124 297Q116 289 91 289Q90 289 87 289T83 289Q60 289 51 308Q49 313 49 361L50 409Q59 427 72 430H78Q83 430
92 430T115 430T144 430T179 431T219 431T262 431H450Q452 430 455 428T459 424T463 422T466 419T468 416T469 413T470 409T471 404T472 398T472 391Q472 374 469 368L462 358Q453 349 315 218Q210 122 164 76H391V103Q391 136 400 146Q409 155 433 155Q464 155
473 135Q475 130 475 78Q475 71 475 60T475 46Q475 24 472 16T453 1H56Z" />
<glyph unicode="{" glyph-name="braceleft" horiz-adv-x="525" d="M430 -7Q431 -7 433 -7T436 -7Q449 -7 456 -8T469 -19T475 -45Q475 -69 466 -76T434 -83Q432 -83 427 -83T419 -83Q386 -82 363 -80T308 -69T253 -41T223 7L221 17L220 118V220L218 224Q215 229
214 230T210 235T204 241T195 246T184 252T170 257T151 262T127 265Q118 267 100 267T69 270T52 283Q50 288 50 306Q50 307 50 309T50 314Q50 335 67 341Q68 342 102 343T172 355T217 386L220 392V493L221 595Q225 611 230 621T251 650T304 679T395 693L406 694Q418
694 426 694Q458 694 466 685Q475 676 475 656T466 627Q458 618 430 618Q319 618 305 587L304 486Q304 476 304 458T305 431Q305 385 295 358T251 311L243 306Q243 305 254 298T281 274T302 231Q304 223 304 125L305 25Q309 16 316 10T352 -1T430 -7Z" />
<glyph unicode="|" glyph-name="bar" horiz-adv-x="525" d="M228 668Q241 694 262 694Q268 694 273 693T282 688T287 682T293 674L297 668V-57Q282 -82 262 -82Q239 -82 228 -57V668Z" />
<glyph unicode="}" glyph-name="braceright" horiz-adv-x="525" d="M220 587Q212 597 207 601T173 612T94 618Q66 618 58 627Q49 635 49 655Q49 676 58 685T89 694Q91 694 96 694T106 694Q141 693 167 690T224 677T275 647T303 595L305 392Q313 367 347 356T417
344T457 341Q475 335 475 306Q475 292 473 285T464 273T451 269T430 267Q352 262 327 246Q311 236 305 220L303 17L301 7Q294 -16 277 -33T242 -60T196 -74T150 -80T106 -83Q78 -83 72 -82T58 -74Q49 -65 49 -44Q49 -24 58 -16Q66 -7 94 -7Q143 -7 171 -1T207 10T220
25V125Q220 223 222 231Q228 257 243 274T270 299L281 306Q234 329 222 381Q220 387 220 486V587Z" />
<glyph unicode="~" glyph-name="asciitilde" horiz-adv-x="525" d="M125 467Q113 467 100 480T87 509Q88 520 111 543Q172 602 209 609Q219 611 224 611Q246 611 263 596T290 566T304 551Q319 551 367 594Q383 610 396 610H400Q411 610 424 597T437 568Q436 557
413 534Q348 469 305 466Q278 466 260 481T234 511T220 526Q205 526 157 483Q141 467 129 467H125Z" />
<glyph unicode="" glyph-name="uni007F" horiz-adv-x="525" d="M104 565Q104 590 120 600T155 611Q175 611 180 610Q217 599 217 565Q217 545 202 532T166 519H159Q159 519 158 519T155 519Q120 519 107 547Q104 553 104 565ZM307 565Q307 580 317 593T346 610Q348
610 350 610T354 611Q355 612 367 612Q395 611 408 597T421 565T409 534T365 519H358Q336 519 322 532T307 565Z" />
<glyph unicode="&#xa0;" glyph-name="uni00A0" horiz-adv-x="250" />
<glyph unicode="&#x131;" glyph-name="dotlessi" horiz-adv-x="525" d="M72 38Q72 46 72 49T74 58T81 68T94 76H233V355H167L102 356Q80 363 80 393Q80 418 91 425T138 432Q145 432 165 432T200 431H295Q297 429 302 426T308 422T312 417T315 410T316 400T317
385T318 363Q318 354 318 314T317 241V76H378Q385 76 396 76T411 76Q434 76 443 73T459 59Q462 53 462 38Q462 29 462 26T460 18T453 9T440 1H94Q72 8 72 33Q72 34 72 35T72 38Z" />
<glyph unicode="&#x237;" glyph-name="uni0237" horiz-adv-x="525" d="M123 393Q123 422 145 430H148Q151 430 156 430T169 430T185 430T205 431T227 431T251 431H354Q356 430 360 427T366 422T370 418T373 413T374 405T376 393T376 378T377 356Q377 345 377 286T376
176Q376 -67 371 -88Q362 -123 342 -151T299 -194Q254 -228 180 -228Q84 -226 56 -177Q49 -162 48 -148Q48 -123 61 -107T100 -91Q105 -91 110 -92Q152 -101 152 -144V-150L160 -151H193Q195 -151 198 -151T203 -151Q241 -151 267 -121Q284 -97 288 -74T292 23Q292
36 292 78T292 151V355H218L145 356Q123 365 123 387Q123 388 123 390T123 393Z" />
<glyph unicode="&#x300;" glyph-name="gravecomb" horiz-adv-x="0" d="M-409 569Q-409 586 -399 596T-377 610Q-376 610 -372 610T-365 611Q-355 610 -284 588T-210 563Q-195 556 -195 537Q-195 533 -197 522T-208 498T-229 485Q-238 485 -312 508T-388 533Q-400
538 -405 552Q-409 559 -409 569Z" />
<glyph unicode="&#x301;" glyph-name="acutecomb" horiz-adv-x="0" d="M-297 485Q-315 485 -323 505T-331 537Q-331 556 -316 563Q-307 569 -170 610Q-169 610 -165 610T-157 611Q-141 609 -131 600T-119 584T-117 569Q-117 555 -124 545T-138 533Q-140 531 -214
508T-297 485Z" />
<glyph unicode="&#x302;" glyph-name="uni0302" horiz-adv-x="0" d="M-387 460Q-404 460 -416 479T-429 512Q-429 527 -419 534Q-416 536 -347 571T-272 609Q-269 611 -261 611Q-254 610 -182 574Q-168 567 -156 561T-136 550T-123 543T-114 538T-109 535T-105
532T-103 529T-100 525Q-97 518 -97 512Q-97 498 -109 479T-139 460Q-139 460 -140 460T-141 460Q-149 460 -209 496L-263 526L-317 496Q-378 460 -387 460Z" />
<glyph unicode="&#x303;" glyph-name="tildecomb" horiz-adv-x="0" d="M-400 467Q-412 467 -425 480T-438 509Q-437 520 -414 543Q-353 602 -316 609Q-306 611 -301 611Q-279 611 -262 596T-235 566T-221 551Q-206 551 -158 594Q-142 610 -129 610H-125Q-114 610
-101 597T-88 568Q-89 557 -112 534Q-177 469 -220 466Q-247 466 -265 481T-291 511T-305 526Q-320 526 -368 483Q-384 467 -396 467H-400Z" />
<glyph unicode="&#x304;" glyph-name="uni0304" horiz-adv-x="0" d="M-429 500Q-440 504 -445 511T-450 522T-452 536Q-452 552 -451 556Q-445 571 -434 574T-379 578Q-370 578 -331 578T-261 577H-96Q-94 575 -90 573T-85 569T-81 564T-77 558T-75 550T-74 538Q-74
522 -78 515T-96 500H-429Z" />
<glyph unicode="&#x306;" glyph-name="uni0306" horiz-adv-x="0" d="M-446 579Q-446 611 -412 611Q-411 611 -409 611T-407 611Q-383 609 -378 599T-358 587Q-340 583 -263 583Q-260 583 -251 583T-235 583Q-159 583 -152 593Q-145 611 -120 611Q-120 611 -119
611T-117 611H-115Q-79 611 -79 577Q-80 560 -87 547T-109 527T-138 514T-174 507T-212 505T-251 504H-263H-274Q-298 504 -313 504T-351 507T-388 514T-417 527T-439 548T-446 579Z" />
<glyph unicode="&#x308;" glyph-name="uni0308" horiz-adv-x="0" d="M-421 565Q-421 590 -405 600T-370 611Q-350 611 -345 610Q-308 599 -308 565Q-308 545 -323 532T-359 519H-366Q-366 519 -367 519T-370 519Q-405 519 -418 547Q-421 553 -421 565ZM-218 565Q-218
580 -208 593T-179 610Q-177 610 -175 610T-171 611Q-170 612 -158 612Q-130 611 -117 597T-104 565T-116 534T-160 519H-167Q-189 519 -203 532T-218 565Z" />
<glyph unicode="&#x30a;" glyph-name="uni030A" horiz-adv-x="0" d="M-344 558Q-344 583 -321 601T-262 619Q-225 619 -204 600T-182 560Q-182 536 -205 518T-264 499Q-301 499 -322 519T-344 558ZM-223 559Q-223 570 -234 579T-261 588T-289 580T-303 559Q-303
549 -293 540T-263 530T-234 539T-223 559Z" />
<glyph unicode="&#x30c;" glyph-name="uni030C" horiz-adv-x="0" d="M-427 525Q-427 542 -417 559T-392 577Q-385 577 -323 553L-263 530L-203 553Q-143 576 -136 576Q-118 576 -109 559T-99 525Q-99 508 -107 502T-161 481Q-177 475 -186 472Q-256 449 -263 449Q-272
449 -339 472T-412 498Q-420 501 -423 508T-427 520V525Z" />
<glyph unicode="&#x393;" glyph-name="Gamma" horiz-adv-x="525" d="M466 611Q468 609 472 606T478 602T481 599T484 595T486 591T488 584T488 575T488 562Q488 558 488 546T488 526T488 505T488 488Q488 468 485 459T470 444Q466 442 446 442Q421 442 413 450Q406
457 405 463T404 501V535H185V76H222Q225 76 230 76T239 76Q260 76 270 69T281 38Q281 12 270 6T209 0Q203 0 185 0T155 0Q144 0 127 0T104 0Q48 0 37 5T25 38Q25 59 35 69Q44 76 76 76H101V535H76Q74 535 70 535T64 535Q36 535 27 552Q25 557 25 573T27 594Q31
601 32 603T42 608T64 611T106 611Q118 611 168 611T258 611H466Z" />
<glyph unicode="&#x394;" glyph-name="increment" horiz-adv-x="525" d="M232 622H237Q242 622 249 622T264 623H293Q316 608 319 601Q322 597 405 316T489 19Q489 8 473 1Q471 0 262 0T51 1Q35 8 35 19Q35 34 118 315T205 601Q214 616 232 622ZM261 523Q261 507
202 298T138 82H386Q283 433 267 501Q263 526 261 526V523Z" />
<glyph unicode="&#x398;" glyph-name="Theta" horiz-adv-x="525" d="M102 588Q140 621 240 621Q323 621 335 620Q393 613 422 588Q450 560 459 493T468 306Q468 185 460 118T422 23Q383 -10 289 -10Q284 -10 275 -10T262 -10T249 -10T235 -10Q141 -10 102 23Q74
50 65 118T56 306Q56 427 64 494T102 588ZM262 66Q285 66 300 67T329 74T351 86T366 108T376 138T381 181T383 235T384 306Q384 452 371 492T304 544Q296 545 251 545Q230 545 215 543T188 534T169 520T155 497T147 466T143 423T141 371T140 306Q140 247 141 215T146
151T158 107T179 82T212 69T262 66ZM179 356Q185 370 194 374T219 378Q220 378 221 378T223 378Q240 377 249 372T260 360L261 355Q261 353 262 353T263 355Q263 362 272 369Q280 377 304 377Q305 377 307 377T310 377Q325 377 331 374T346 356V256Q338 241 331
238T309 234Q308 234 307 234T304 234Q280 234 272 242Q263 249 263 256Q263 258 262 258T261 256Q261 249 252 242Q244 234 220 234Q219 234 218 234T216 234Q205 234 200 235T188 241T179 256V356Z" />
<glyph unicode="&#x39b;" glyph-name="Lambda" horiz-adv-x="525" d="M52 1Q30 9 30 32Q30 33 30 35T30 38Q30 63 47 73Q53 76 70 76Q88 76 88 78Q89 79 117 207T173 466T205 602Q213 617 231 622H236Q241 622 249 622T264 623H294Q315 609 319 602Q321 598 350
468T407 208T435 78Q436 76 454 76Q470 76 478 73Q495 62 495 38Q495 10 473 1H313Q290 10 290 38Q290 56 297 65T310 74T331 76Q350 76 350 78Q349 80 328 176T285 383T263 520Q263 526 262 527Q261 527 261 521Q261 497 240 388T198 181T174 78Q174 76 193 76Q220
75 227 65Q234 56 234 38Q234 28 234 24T228 13T212 1H52Z" />
<glyph unicode="&#x39e;" glyph-name="Xi" horiz-adv-x="525" d="M37 555Q37 556 37 561T37 569Q37 604 60 610H66Q71 610 81 610T105 610T137 610T175 611T217 611T264 611H465Q467 609 471 606T477 602T481 599T484 594T485 588T487 580T487 570T487 554Q487
526 486 520T478 506Q470 498 445 498T412 506Q403 515 403 531V539H121V531Q121 498 86 498Q84 498 82 498T79 498Q78 498 75 498T71 498Q48 498 39 517Q37 522 37 555ZM109 318Q109 324 109 333T109 346Q109 366 113 374T132 389H170Q193 379 193 359V354H331V359Q331
379 354 389H392Q407 381 411 373T415 342Q415 339 415 331T415 318Q415 312 415 303T415 290Q415 270 411 262T392 247H354Q331 257 331 277V282H193V277Q193 257 170 247H132Q117 255 113 263T109 294Q109 297 109 305T109 318ZM56 1Q41 7 37 16T33 42Q33 45
33 50T33 58Q33 62 33 69T33 80Q33 101 41 110T77 119Q87 118 91 118T103 114T114 103T117 83V72H407V83Q407 101 416 110T449 119T482 110Q489 103 490 97T491 59Q491 55 491 50T491 41Q491 24 487 16T469 1H56Z" />
<glyph unicode="&#x3a0;" glyph-name="Pi" horiz-adv-x="525" d="M60 535Q45 535 38 536T24 545T16 571Q16 603 36 609Q41 611 264 611H486Q501 602 504 596T508 573Q508 559 505 551T495 540T482 536T464 535H443V76H464Q465 76 467 76T470 76Q482 76 489 75T502
64T508 38Q508 10 486 1H317Q306 5 301 11T296 21T295 38Q295 39 295 41T295 44Q295 65 311 73Q318 76 338 76H359V535H165V76H186Q187 76 189 76T192 76Q204 76 211 75T224 64T230 38Q230 10 208 1H39Q28 5 23 11T18 21T17 38Q17 39 17 41T17 44Q17 65 33 73Q40
76 60 76H81V535H60Z" />
<glyph unicode="&#x3a3;" glyph-name="Sigma" horiz-adv-x="525" d="M40 575Q40 576 40 579T41 583T41 588T43 593T46 597T50 602T55 606T63 610H68Q74 610 84 610T108 610T139 610T176 611T219 611T264 611H462Q464 609 468 606T474 602T477 599T480 595T482
591T484 584T484 575T484 562Q484 558 484 546T484 526T484 505T484 488Q484 468 481 459T466 444Q462 442 442 442Q417 442 409 450Q402 457 401 463T400 501V535H153Q153 533 218 430Q233 405 250 378T276 336T286 319Q290 312 290 307Q290 299 279 279T223 184L161
78H400V112Q400 142 401 149T409 163Q418 172 442 172Q473 172 482 152Q484 147 484 86Q484 78 484 66T484 49Q484 25 481 17T462 1H63Q41 10 41 31Q41 39 43 44Q43 45 81 109T157 238L195 303Q195 307 119 430T41 557T40 575Z" />
<glyph unicode="&#x3a5;" glyph-name="Upsilon" horiz-adv-x="525" d="M38 494Q38 549 74 585T152 621Q168 621 179 619T209 606T241 566T262 492Q262 494 265 507T270 526T276 547T285 569T298 589T315 606T337 617T365 622Q416 622 451 584T486 494Q486 470
469 461Q464 459 445 459Q444 459 441 459T437 459Q416 459 406 476Q404 479 403 502T393 541T365 558Q350 558 340 548T323 519T312 475T307 419T305 354T304 282Q304 254 304 239V76H358Q372 67 376 60T380 38Q380 10 358 1H167Q145 9 145 32Q145 33 145 35T145
38Q145 54 148 60T167 76H220V239Q220 256 220 289T220 338T219 383T217 426T214 463T209 497T201 522T189 543T174 555Q168 558 159 558Q139 558 131 541T121 502T118 476Q112 465 105 462T84 459Q84 459 82 459T79 459Q78 459 75 459T71 459Q61 459 55 460T44
470T38 494Z" />
<glyph unicode="&#x3a6;" glyph-name="Phi" horiz-adv-x="525" d="M139 573Q139 574 139 575T139 578Q139 603 161 610H166Q172 610 182 610T204 610T232 611T264 611H364Q379 602 382 595T385 573Q385 544 364 536L334 535H304V441H306Q313 440 325 438T367 426T421
403T464 364T483 306Q483 251 430 216T317 172Q315 172 313 172T308 170H306H304V76H364Q379 67 382 60T385 38Q385 28 385 24T379 12T364 1H161Q139 8 139 33Q139 34 139 35T139 38Q139 46 139 49T141 58T148 68T161 76H220V170H218Q211 171 199 173T157 185T103
208T60 248T41 306Q41 361 94 396T208 439Q210 439 212 439T216 440L218 441H220V535H190L161 536Q139 543 139 573ZM124 306Q124 286 147 271T194 252L218 247Q220 247 220 306V364H218Q212 364 192 359T148 340T124 306ZM400 305Q400 325 377 340T330 360L306
364Q304 364 304 306Q304 247 306 247Q312 247 332 252T376 271T400 305Z" />
<glyph unicode="&#x3a8;" glyph-name="Psi" horiz-adv-x="525" d="M77 475H79Q91 475 99 474T120 467T140 448T152 411Q152 409 153 396T154 372Q154 372 154 370T154 365Q154 291 198 261Q215 251 219 251Q220 251 220 393V535H193L167 536Q145 545 145 567Q145
568 145 570T145 573Q145 602 167 610Q168 611 264 611H358Q372 602 376 595T380 573Q380 549 363 538L358 536L331 535H304V393Q304 251 305 251Q307 251 310 252T323 259T339 272T355 295T367 331Q368 337 370 372Q370 382 371 395T372 411Q376 434 384 448T404
467T425 474T447 475Q461 474 467 473T480 463T487 437Q487 419 481 412Q476 403 459 398Q457 390 453 344T431 263Q415 228 383 205T332 177T306 172H304V76H358Q372 67 376 60T380 38Q380 10 358 1H167Q145 9 145 32Q145 33 145 35T145 38Q145 54 148 60T167
76H220V172H218Q211 172 192 177T141 205T93 263Q74 298 71 343T67 391L66 398Q47 403 42 411T37 433Q37 434 37 436T37 439Q39 464 55 472Q61 475 77 475Z" />
<glyph unicode="&#x3a9;" glyph-name="Omega" horiz-adv-x="525" d="M40 404Q40 498 106 560T258 622Q357 622 420 558T484 406Q484 359 469 311T428 205T392 117Q382 84 382 78Q382 76 402 76H421V87Q421 110 431 116T457 123Q474 123 483 114Q490 107 491 100T492
61Q492 58 492 52T492 42Q492 11 474 3Q470 1 397 1H324Q310 6 306 13T302 32Q302 33 302 35T302 39Q302 104 351 225T400 405Q400 462 361 504T262 546Q200 546 162 504T124 405Q124 346 171 230T223 42Q223 42 223 41Q223 38 223 36Q223 10 205 3Q201 1 128 1H55Q39
7 33 23L32 60Q32 63 32 70T32 80Q32 101 39 112T68 123Q103 123 103 87V76H123Q142 76 142 78Q142 100 117 156T66 282T40 404Z" />
<glyph unicode="&#x7e2;" glyph-name="uni07E2" horiz-adv-x="525" d="M205 554Q205 577 221 594T263 611Q302 611 325 577T349 490Q349 409 298 347Q285 330 258 309T214 287Q203 289 189 302T175 327Q175 341 185 349T213 369T245 402Q269 437 273 483V497Q264
496 263 496Q240 496 223 513T205 554Z" />
<glyph unicode="&#x7e3;" glyph-name="uni07E3" horiz-adv-x="525" d="M176 479Q176 563 227 622T310 681Q324 680 337 667T350 641Q350 627 340 619T312 599T280 566Q256 531 252 485V471Q261 472 262 472Q285 472 302 455T320 414Q320 389 303 373T261 357Q223
357 200 391T176 479Z" />
<glyph unicode="&#x2032;" glyph-name="minute" horiz-adv-x="525" d="M211 572Q211 593 226 608T262 623Q281 623 297 610T313 573Q313 561 307 465Q301 370 299 357T284 336Q279 334 262 334Q240 334 231 343Q226 350 225 362T217 465Q211 549 211 572Z" />
<glyph unicode="&#xeffd;" glyph-name="uniEFFD" horiz-adv-x="300" d="M0 0V100H100V0H0ZM200 0V100H300V0H200Z" />
<glyph unicode="&#xeffe;" glyph-name="uniEFFE" horiz-adv-x="300" d="M0 0V100H100V0H0ZM200 0V100H300V0H200Z" />
<glyph unicode="&#xefff;" glyph-name="uniEFFF" horiz-adv-x="100" d="M0 0V100H100V0H0Z" />
</font>
</defs>
</svg>
